Tiny Christmas (2017) 1080p WEB-DL DD5.1 H.264-LAZY

  • Category Movies
  • Type HD
  • Language English
  • Total size 2.6 GB
  • Uploaded By LazyRips
  • Downloads 1560
  • Last checked 22 minutes ago
  • Date uploaded 1 week ago
  • Seeders 50
  • Leechers 26

Tiny Christmas

AdventureComedyFamilyTV Movie

It is Christmas Eve, and a clumsy elf accidentally shrinks down two cousins into miniature sizes! The kids are then scooped up into Santa's sack and dropped off across the street at their neighbour's house. In order to make it home for Christmas (just one house away!), the tiny kids must comically work together and overcome holiday hazards to set themselves right and make Christmas magic happen! But, will the tiny kids get home on time?

Infohash : 9B01F339EDF0B3A1A2B8BBE1361CF6146DEE21DB

Tiny Christmas:

Video
ID : 1
Format : AVC
Format/Info : Advanced Video Codec
Format profile : [email protected]
Format settings, CABAC : Yes
Format settings, RefFrames : 4 frames
Codec ID : V_MPEG4/ISO/AVC
Duration : 1 h 6 min
Bit rate : 5 200 kb/s
Width : 1 904 pixels
Height : 1 064 pixels
Display aspect ratio : 16:9
Frame rate mode : Constant
Frame rate : 23.976 (24000/1001) FPS
Color space : YUV
Chroma subsampling : 4:2:0
Bit depth : 8 bits
Scan type : Progressive
Bits/(Pixel*Frame) : 0.107
Stream size : 2.41 GiB (93%)
Language : English
Default : Yes
Forced : No
Color range : Limited
Color primaries : BT.709
Transfer characteristics : BT.709
Matrix coefficients : BT.709

Audio
ID : 2
Format : AC-3
Format/Info : Audio Coding 3
Format settings, Endianness : Big
Codec ID : A_AC3
Duration : 1 h 6 min
Bit rate mode : Constant
Bit rate : 384 kb/s
Channel(s) : 6 channels
Channel positions : Front: L C R, Side: L R, LFE
Sampling rate : 48.0 kHz
Frame rate : 31.250 FPS (1536 SPF)
Bit depth : 16 bits
Compression mode : Lossy
Delay relative to video : -42 ms
Stream size : 182 MiB (7%)
Language : English
Service kind : Complete Main
Default : Yes
Forced : No

Text
ID : 3
Format : UTF-8
Codec ID : S_TEXT/UTF8
Codec ID/Info : UTF-8 Plain Text
Duration : 1 h 5 min
Bit rate : 96 b/s
Count of elements : 1454
Stream size : 46.0 KiB (0%)
Language : English
Default : Yes
Forced : No

Screenshots:

Files:

  • Tiny.Christmas.2017.1080p.WEB-DL.DD5.1.H.264-LAZY.mkv (2.6 GB)

Comments

Code:

  • udp://tracker.opentrackr.org:1337/announce
  • udp://tracker.coppersurfer.tk:6969/announce
  • udp://9.rarbg.me:2730/announce
  • http://glotorrents.pw:80/announce
  • udp://tracker.istole.it:80/announce
  • udp://tracker4.piratux.com:6969/announce
  • udp://tracker.publicbt.com:80/announce
  • udp://coppersurfer.tk:6969/announce
  • udp://open.demonii.com:1337/announce
  • udp://tracker.openbittorrent.com:80/announce