Better Watch Out 2016 (1080p Bluray x265 HEVC 10bit AAC 5.1 Tigol...

  • Category Movies
  • Type HEVC/x265
  • Language English
  • Total size 2.5 GB
  • Uploaded By UTRplus
  • Downloads 1253
  • Last checked 1 hour ago
  • Date uploaded 5 days ago
  • Seeders 49
  • Leechers 23

Better Watch Out

HorrorThriller

On a quiet suburban street tucked within a 'safe neighborhood', a babysitter must defend a twelve-year-old boy from strangers breaking into the house, only to discover that this is FAR FROM a normal home invasion.

Infohash : AD3F1D446964D9B7A54DF2DC048E0A0F82CD673E



Better Watch Out 2016 in 1080p, encoded with x265 in HEVC and AAC 5.1 English, with subtitle!
Encoded using the time consuming 2 pass, 10 bit color at 2838 kbps, from a Blu-ray source, for the highest quality possible.



Media Information

Code:

General
Format : Matroska
Format version : Version 4 / Version 2
File size : 2.05 GiB
Duration : 1 h 28 min
Overall bit rate : 3 305 kb/s
Movie name : Better Watch Out
Encoded date : UTC 2017-12-06 12:35:46
Writing application : mkvmerge v14.0.0 ('Flow') 64bit
Writing library : libebml v1.3.4 + libmatroska v1.4.5

Video
ID : 1
Format : HEVC
Format/Info : High Efficiency Video Coding
Format profile : Main [email protected]@Main
Codec ID : V_MPEGH/ISO/HEVC
Duration : 1 h 28 min
Bit rate : 2 838 kb/s
Width : 1 920 pixels
Height : 804 pixels
Display aspect ratio : 2.40:1
Frame rate mode : Constant
Frame rate : 24.000 FPS
Color space : YUV
Chroma subsampling : 4:2:0
Bit depth : 10 bits
Bits/(Pixel*Frame) : 0.077
Stream size : 1.76 GiB (86%)
Writing library : x265 2.5+66-dae558b40d99:[Windows][GCC 7.2.0][64 bit] 10bit
Encoding settings : cpuid=1173503 / frame-threads=3 / numa-pools=8 / wpp / no-pmode / no-pme / no-psnr / no-ssim / log-level=2 / input-csp=1 / input-res=1920x804 / interlace=0 / total-frames=127925 / level-idc=0 / high-tier=1 / uhd-bd=0 / ref=4 / no-allow-non-conformance / no-repeat-headers / annexb / no-aud / no-hrd / info / hash=0 / no-temporal-layers / open-gop / min-keyint=24 / keyint=250 / bframes=4 / b-adapt=2 / b-pyramid / bframe-bias=0 / rc-lookahead=25 / lookahead-slices=4 / scenecut=40 / no-intra-refresh / ctu=64 / min-cu-size=8 / rect / no-amp / max-tu-size=32 / tu-inter-depth=1 / tu-intra-depth=1 / limit-tu=0 / rdoq-level=2 / dynamic-rd=0.00 / no-ssim-rd / signhide / no-tskip / nr-intra=0 / nr-inter=0 / no-constrained-intra / strong-intra-smoothing / max-merge=3 / limit-refs=3 / limit-modes / me=3 / subme=3 / merange=57 / temporal-mvp / weightp / no-weightb / no-analyze-src-pics / deblock=0:0 / sao / no-sao-non-deblock / rd=4 / no-early-skip / rskip / no-fast-intra / no-tskip-fast / no-cu-lossless / no-b-intra / no-splitrd-skip / rdpenalty=0 / psy-rd=2.00 / psy-rdoq=1.00 / no-rd-refine / analysis-reuse-mode=0 / no-lossless / cbqpoffs=0 / crqpoffs=0 / rc=abr / bitrate=2838 / qcomp=0.60 / qpstep=4 / stats-write=0 / stats-read=2 / cplxblur=20.0 / qblur=0.5 / ipratio=1.40 / pbratio=1.30 / aq-mode=3 / aq-strength=1.00 / cutree / zone-count=0 / no-strict-cbr / qg-size=32 / no-rc-grain / qpmax=69 / qpmin=0 / no-const-vbv / sar=0 / overscan=0 / videoformat=5 / range=0 / colorprim=2 / transfer=2 / colormatrix=2 / chromaloc=0 / display-window=0 / max-cll=0,0 / min-luma=0 / max-luma=1023 / log2-max-poc-lsb=8 / vui-timing-info / vui-hrd-info / slices=1 / no-opt-qp-pps / no-opt-ref-list-length-pps / no-multi-pass-opt-rps / scenecut-bias=0.05 / no-opt-cu-delta-qp / no-aq-motion / no-hdr / no-hdr-opt / no-dhdr10-opt / analysis-reuse-level=5 / scale-factor=0 / refine-intra=0 / refine-inter=0 / refine-mv=0 / no-limit-sao / ctu-info=0 / no-lowpass-dct / refine-mv-type=0 / copy-pic=1
Default : Yes
Forced : No

Audio
ID : 2
Format : AAC
Format/Info : Advanced Audio Codec
Format profile : LC
Codec ID : A_AAC
Duration : 1 h 28 min
Bit rate : 459 kb/s
Channel(s) : 6 channels
Channel positions : Front: L C R, Side: L R, LFE
Sampling rate : 48.0 kHz
Frame rate : 46.875 FPS (1024 spf)
Compression mode : Lossy
Delay relative to video : 20 ms
Stream size : 291 MiB (14%)
Language : English
Default : Yes
Forced : No

Text
ID : 3
Format : VobSub
Muxing mode : zlib
Codec ID : S_VOBSUB
Codec ID/Info : Picture based subtitle format used on DVDs
Duration : 1 h 25 min
Bit rate : 10.8 kb/s
Count of elements : 1308
Stream size : 6.59 MiB (0%)
Language : English
Default : No
Forced : No

Menu
00:00:00.000 : en:Chapter 00
00:06:29.458 : en:Chapter 01
00:11:39.958 : en:Chapter 02
00:21:11.000 : en:Chapter 03
00:29:43.041 : en:Chapter 04
00:33:19.125 : en:Chapter 05
00:44:38.666 : en:Chapter 06
00:54:49.583 : en:Chapter 07
01:01:58.500 : en:Chapter 08
01:09:15.250 : en:Chapter 09
01:17:45.958 : en:Chapter 10
01:23:29.833 : en:Chapter 11


Source Information

Code:

Release : Better.Watch.Out.2016.1080p.BluRay.AVC.DTS-HD.MA.5.1-FGT
Complete name : Better_Watch_Out_t00.mkv
File size : 13.9 GiB
Duration : 1 h 28 min
Overall bit rate mode : Variable
Overall bit rate : 22.4 Mb/s


Files:

Better Watch Out 2016 (1080p Bluray x265 HEVC 10bit AAC 5.1 Tigole)
  • Better Watch Out 2016 (1080p x265 10bit Tigole).mkv (2.1 GB)
  • Featurettes
    • Making of.mkv (495.8 MB)
    • Trailer.mkv (15.1 MB)

Comments

Code:

  • udp://tracker.torrent.eu.org:451/announce
  • udp://tracker.opentrackr.org:1337/announce
  • udp://tracker.coppersurfer.tk:6969/announce